Панель пользователя
Регистрация

Воспользуйтесь социальными сетями для входа на https://freerutor.com

vk odnoklassniki facebook mailru yandex google
Популярное
Счетчик
Голосуй за нас
VIP на сайте
Популярное
Товары интернет магазина
загрузка...

Семейные ценности / Американская семейка / Modern Family (6 сезон 1-24 серии из 24 ) (2014) WEB-DL 720p | Lostfilm

Семейные ценности / Американская семейка / Modern Family (6 сезон 1-24 серии из 24 ) (2014) WEB-DL 720p | Lostfilm
Участники торрент обмена
Сидов Пиров Скачали
0 0 4
Характеристика
Размер Файлы
17.36 GB
Релиз группа
Поделиться раздачей
Заруб. сериалы (720P,1080P)
Название: Американская семейка (Семейные Ценности)
Оригинальное название: Modern Family
Жанр: Комедия
Выпущено: США / 20th Century Fox Television, Levitan / Lloyd
Режиссер: Майкл Спиллер, Джейсон Уайнер, Гэйл Манкусо
В ролях: Эд О`Нил, София Вергара, Тай Буррелл, Джули Боуэн, Джесси Тайлер Фергюсон, Эрик Стоунстрит, Рико Родригез, Нолан Гоулд, Сара Хайланд, Эриель Винтер
Краткое описание: Джей Притчетт познакомился со сногсшибательной колумбийкой Глорией, когда она в бикини подавала ему коктейли на вечеринке, которую он устроил в день ухода его первой жены. Теперь Джей и Глория женаты, и Джей изо всех сил старается не отставать от молодой красотки-жены и ее сына Мэни. В семье Клэр Данфи тоже не все гладко. Ее муж Фил — просто замечательный, но он считает, что «свой в доску» для детей, чем их сильно смущает. А сын Джея Митчелл и его партнер Камерон только что удочерили Лили, очаровательного младенца из Вьетнама.
  • Видео: MPEG-4 AVC, 4000 Кбит/с, 1280x720
    Аудио: Русский (AC3, 2 ch, 384 Кбит/с), английский (AC3, 6 ch, 384 Кбит/с)
    Перевод: Профессиональный многоголосый (LostFilm)
    Субтитры: Русские, английские
    Продолжительность: 24 x ~ 00:21:00
  • Семейные ценности / Американская семейка / Modern Family (6 сезон 1-24 серии из 24 ) (2014) WEB-DL 720p | Lostfilm Семейные ценности / Американская семейка / Modern Family (6 сезон 1-24 серии из 24 ) (2014) WEB-DL 720p | Lostfilm Семейные ценности / Американская семейка / Modern Family (6 сезон 1-24 серии из 24 ) (2014) WEB-DL 720p | Lostfilm
  • Общее
    Уникальный идентификатор : 227229787283527002531772163438427193953 (0xAAF2DD7B08DA0B5D84171B85F8AB4261)
    Полное имя : E:MF_S06_LostFilmMF_S06E01.WEB-DL.720p.mkv
    Формат : Matroska
    Версия формата : Version 2
    Размер файла : 714 Мбайт
    Продолжительность : 21 м.
    Общий поток : 4694 Кбит/сек
    Дата кодирования : UTC 2014-09-28 12:57:47
    Программа кодирования : mkvmerge v7.2.0 ('On Every Street') 64bit built on Sep 13 2014 15:52:10
    Библиотека кодирования : libebml v1.3.0 + libmatroska v1.4.1

    Видео
    Идентификатор : 1
    Формат : AVC
    Формат/Информация : Advanced Video Codec
    Профиль формата : High@L3.1
    Параметр CABAC формата : Нет
    Параметр ReFrames формата : 2 кадра
    Идентификатор кодека : V_MPEG4/ISO/AVC
    Продолжительность : 21 м.
    Битрейт : 3832 Кбит/сек
    Ширина : 1280 пикселей
    Высота : 720 пикселей
    Соотношение сторон : 16:9
    Режим частоты кадров : Постоянный
    Частота кадров : 23,976 кадра/сек
    Цветовое пространство : YUV
    Субдискретизация насыщенности : 4:2:0
    Битовая глубина : 8 бит
    Тип развёртки : Прогрессивная
    Бит/(Пиксели*Кадры) : 0.173
    Размер потока : 583 Мбайт (82%)
    Язык : English
    Default : Да
    Forced : Нет
    Основные цвета : BT.709
    Характеристики трансфера : BT.709
    Коэффициенты матрицы : BT.709

    Аудио #1
    Идентификатор : 2
    Формат : AC-3
    Формат/Информация : Audio Coding 3
    Расширение режима : CM (complete main)
    Параметр Endianness формата : Big
    Идентификатор кодека : A_AC3
    Продолжительность : 21 м.
    Вид битрейта : Постоянный
    Битрейт : 384 Кбит/сек
    Каналы : 2 канала
    Расположение каналов : Front: L R
    Частота : 48,0 КГц
    Битовая глубина : 16 бит
    Метод сжатия : С потерями
    Размер потока : 58,4 Мбайт (8%)
    Заголовок : LostFilm
    Язык : Russian
    Default : Да
    Forced : Нет

    Аудио #2
    Идентификатор : 3
    Формат : AC-3
    Формат/Информация : Audio Coding 3
    Расширение режима : CM (complete main)
    Параметр Endianness формата : Big
    Идентификатор кодека : A_AC3
    Продолжительность : 21 м.
    Вид битрейта : Постоянный
    Битрейт : 384 Кбит/сек
    Каналы : 6 каналов
    Расположение каналов : Front: L C R, Side: L R, LFE
    Частота : 48,0 КГц
    Битовая глубина : 16 бит
    Метод сжатия : С потерями
    Размер потока : 58,4 Мбайт (8%)
    Заголовок : Original
    Язык : English
    Default : Нет
    Forced : Нет

    Текст #1
    Идентификатор : 4
    Формат : UTF-8
    Идентификатор кодека : S_TEXT/UTF8
    Идентификатор кодека/Информация : UTF-8 Plain Text
    Заголовок : Notabenoid
    Язык : Russian
    Default : Нет
    Forced : Нет

    Текст #2
    Идентификатор : 5
    Формат : UTF-8
    Идентификатор кодека : S_TEXT/UTF8
    Идентификатор кодека/Информация : UTF-8 Plain Text
    Заголовок : Addic7ed
    Язык : English
    Default : Нет
    Forced : Нет
5.0 из 10
голосов: 4
/10
/10
Раздачу отредактировал: grab777 - 12-11-2015, 20:09
По причине: (+24 серия)
grab777 21-02-2015, 23:48
Информация
Посетители, находящиеся в группе Гости, не могут оставлять комментарии к данной публикации.