Панель пользователя
Регистрация

Воспользуйтесь социальными сетями для входа на https://freerutor.com

vk odnoklassniki facebook mailru yandex google
Популярное
Счетчик
Голосуй за нас
VIP на сайте
Популярное
Товары интернет магазина
загрузка...

Последний поворот (2015) BDRip 1080p | iTunes

Последний поворот (2015) BDRip 1080p | iTunes
Участники торрент обмена
Сидов Пиров Скачали
18 1 1113
Характеристика
Размер Файлы
6.78 GB
Поделиться раздачей
Фильмы (720,1080,Blu-Ray)
Наименование: Последний поворот / Лемон Три Пасседж
Оригинальное наименование: Lemon Tree Passage
Категория: Ужасы, триллер
Произведено: Австралия, Thirteen Disciples
Режиссер постановщик: Дэвид Кэмпбелл
В главных ролях: Джессика Тоуви, Николас Ганн, Пиппа Блэк, Тим Филлиппс, Эндрю Райан, Тим Пакок, Пьера Форде
Краткое описание: Группа туристов узнает о призраке, который появляется в зеркале заднего автомобиля, несущегося на высокой скорости. Они решают промчаться по Лемон Три Пасседж, дороге проходящей в глубине густых лесов. Но их ликование сменяется ужасом, когда пассажиры автомобиля начинают исчезать один за другим…
  • Видео данные: MPEG-4 AVC, 9737 Кбит/с, 1920x816
    Аудио данные: Русский (АС3, 6 ch, 384 Кбит/с), английский (DTS, 6 ch, 1510 Кбит/с)
    Перевод: Дублированный [iTunes]
    Продолжительность: 01:23:30
  • Последний поворот (2015) BDRip 1080p | iTunes Последний поворот (2015) BDRip 1080p | iTunes Последний поворот (2015) BDRip 1080p | iTunes
  • Общее
    Уникальный идентификатор : 195687801580691980003087871840838779614 (0x93381984BB00211A8BD71EEBE8A082DE)
    Полное имя : D:\загрузки\Poslednij.povorot.2O15.BDRip.1080p.mkv
    Формат : Matroska
    Версия формата : Version 4 / Version 2
    Размер файла : 6,78 Гбайт
    Продолжительность : 1 ч. 23 м.
    Общий поток : 11,6 Мбит/сек
    Дата кодирования : UTC 2016-10-15 04:54:02
    Программа кодирования : mkvmerge v6.8.0 ('Theme for Great Cities') 32bit built on Mar 2 2014 21:27:07
    Библиотека кодирования : libebml v1.3.0 + libmatroska v1.4.1

    Видео
    Идентификатор : 1
    Формат : AVC
    Формат/Информация : Advanced Video Codec
    Профиль формата : High@L4.1
    Параметр CABAC формата : Да
    Параметр ReFrames формата : 5 кадров
    Идентификатор кодека : V_MPEG4/ISO/AVC
    Продолжительность : 1 ч. 23 м.
    Битрейт : 9737 Кбит/сек
    Ширина : 1920 пикселей
    Высота : 816 пикселей
    Соотношение сторон : 2,35:1
    Режим частоты кадров : Постоянный
    Частота кадров : 24,000 кадра/сек
    Цветовое пространство : YUV
    Субдискретизация насыщенности : 4:2:0
    Битовая глубина : 8 бит
    Тип развёртки : Прогрессивная
    Бит/(Пиксели*Кадры) : 0.259
    Размер потока : 5,54 Гбайт (82%)
    Библиотека кодирования : x264 core 144 r2525 40bb568
    Настройки программы : cabac=1 / ref=5 / deblock=1:-3:-3 / analyse=0x3:0x113 / me=umh / subme=11 / psy=1 / psy_rd=1.05:0.00 / mixed_ref=1 / me_range=36 / chroma_me=1 / trellis=2 / 8x8dct=1 / cqm=0 / deadzone=21,11 / fast_pskip=0 / chroma_qp_offset=-2 / threads=12 / lookahead_threads=3 / sliced_threads=0 / nr=0 / decimate=0 / interlaced=0 / bluray_compat=0 / constrained_intra=0 / bframes=10 / b_pyramid=2 / b_adapt=2 / b_bias=0 / direct=3 / weightb=1 / open_gop=0 / weightp=2 / keyint=250 / keyint_min=24 / scenecut=40 / intra_refresh=0 / rc=2pass / mbtree=0 / bitrate=9737 / ratetol=1.0 / qcomp=0.60 / qpmin=0 / qpmax=69 / qpstep=4 / cplxblur=20.0 / qblur=0.5 / ip_ratio=1.40 / pb_ratio=1.30 / aq=1:0.60
    Язык : English
    Default : Да
    Forced : Нет

    Аудио #1
    Идентификатор : 2
    Формат : AC-3
    Формат/Информация : Audio Coding 3
    Расширение режима : CM (complete main)
    Параметр Endianness формата : Big
    Идентификатор кодека : A_AC3
    Продолжительность : 1 ч. 23 м.
    Вид битрейта : Постоянный
    Битрейт : 384 Кбит/сек
    Каналы : 6 каналов
    Расположение каналов : Front: L C R, Side: L R, LFE
    Частота : 48,0 КГц
    Битовая глубина : 16 бит
    Метод сжатия : С потерями
    Размер потока : 229 Мбайт (3%)
    Язык : Russian
    Default : Да
    Forced : Да

    Аудио #2
    Идентификатор : 3
    Формат : DTS
    Формат/Информация : Digital Theater Systems
    Режим : 16
    Параметр Endianness формата : Big
    Идентификатор кодека : A_DTS
    Продолжительность : 1 ч. 23 м.
    Вид битрейта : Постоянный
    Битрейт : 1509 Кбит/сек
    Каналы : 6 каналов
    Расположение каналов : Front: L C R, Side: L R, LFE
    Частота : 48,0 КГц
    Битовая глубина : 24 бит
    Метод сжатия : С потерями
    Размер потока : 901 Мбайт (13%)
    Язык : English
    Default : Нет
    Forced : Нет

    Текст
    Идентификатор : 4
    Формат : UTF-8
    Идентификатор кодека : S_TEXT/UTF8
    Идентификатор кодека/Информация : UTF-8 Plain Text
    Язык : Russian
    Default : Да
    Forced : Да

    Меню
    00:00:00.000 : en:00:00:00.000
    00:08:53.458 : en:00:08:53.458
    00:15:17.333 : en:00:15:17.333
    00:23:41.708 : en:00:23:41.708
    00:31:00.792 : en:00:31:00.792
    00:35:08.875 : en:00:35:08.875
    00:42:21.917 : en:00:42:21.917
    00:52:58.167 : en:00:52:58.167
    01:02:22.875 : en:01:02:22.875
    01:12:24.125 : en:01:12:24.125

4.2 из 10
голосов: 5
/10
/10
karta 16-10-2016, 14:55

Whiteowl | 29-01-2015, 18:55 | Статус: Оффлайн

Какая-то подозрительно знакомая фигура из песка)
Информация
Посетители, находящиеся в группе Гости, не могут оставлять комментарии к данной публикации.