Панель пользователя
Регистрация

Воспользуйтесь социальными сетями для входа на https://freerutor.com

vk odnoklassniki facebook mailru yandex google
Популярное
Счетчик
Голосуй за нас
VIP на сайте
Популярное
Товары интернет магазина
загрузка...

Злодей / Ek Villain (2014) BDRip 720p

Злодей / Ek Villain (2014) BDRip 720p
Участники торрент обмена
Сидов Пиров Скачали
0 0 276
Характеристика
Размер Файлы
5.27 GB
Релиз группа
Поделиться раздачей
Фильмы (720,1080,Blu-Ray)
Наименование: Злодей
Оригинальное наименование: Ek Villain
Произведено: Индия, Balaji Motion Pictures
Категория: Боевик, триллер, мелодрама
Режиссер постановщик: Мохит Сури
В главных ролях: Rini Das, Прачи Десаи, Ритеш Дешмукх, Praveena Deshpande, Ремо Фернандес, Nihar Gite, Anagha Joshi, Шраддха Капур, Камал Рашид Кхан, Rishina Khandare
Краткое описание: История о жестоком и безжалостном парне по имени Гуру, который работает на политика. Темное прошлое не дает Гуру спокойно спать по ночам, но однажды он встречает Аишу. Он влюбляется в нее, это сильно меняет его жизнь. Гуру убеждает ее жениться на нем и даже бросает свою работу, чтобы начать все сначала уже вместе с Аишей. Но внезапно на Аишу совершают нападение.
  • Видео данные: MPEG-4 AVC, 4158 Кбит/с, 1280x544
    Аудио данные: Русский (AC3, 2 ch, 192 Кбит/с), xинди (DTS, 6 ch, 1509 Кбит/с)
    Перевод: Профессиональный многоголосый (SDI Media)
    Субтитры: Русские, английские
    Продолжительность: 02:08:49
  • Злодей / Ek Villain (2014) BDRip 720p Злодей / Ek Villain (2014) BDRip 720p Злодей / Ek Villain (2014) BDRip 720p
  • Субтитры: Русские на песни и полные
    Rip by - KirDan - Спасибо!

    Общее
    Уникальный идентификатор : 255146373159810436852685697244453673516 (0xBFF3676E50B7605FB2AC2991CA701A2C)
    Полное имя : :\\EK_VLLN_2014_BDRIP_720P -BLUEBIRD.mkv
    Формат : Matroska
    Версия формата : Version 4 / Version 2
    Размер файла : 5,27 Гбайт
    Продолжительность : 2 ч. 8 м.
    Общий поток : 5862 Кбит/сек
    Название фильма : Злодей / EK_VILLAIN_2014_BDRIP_720P -BLUEBIRD
    Дата кодирования : UTC 2015-12-13 07:01:58
    Программа кодирования : mkvmerge v8.5.0 ('Vanishing Act') 32bit
    Библиотека кодирования : libebml v1.3.1 + libmatroska v1.4.2
    DURATION : 02:08:48.896000000
    NUMBER_OF_FRAMES : 241528
    NUMBER_OF_BYTES : 185493504
    _STATISTICS_WRITING_APP : mkvmerge v8.5.0 ('Vanishing Act') 32bit
    _STATISTICS_WRITING_DATE_UTC : 2015-12-13 07:01:58
    _STATISTICS_TAGS : BPS DURATION NUMBER_OF_FRAMES NUMBER_OF_BYTES

    Видео
    Идентификатор : 1
    Формат : AVC
    Формат/Информация : Advanced Video Codec
    Профиль формата : High@L4.1
    Параметр CABAC формата : Да
    Параметр ReFrames формата : 7 кадров
    Идентификатор кодека : V_MPEG4/ISO/AVC
    Продолжительность : 2 ч. 8 м.
    Битрейт : 4158 Кбит/сек
    Ширина : 1280 пикселей
    Высота : 544 пикселя
    Соотношение сторон : 2,35:1
    Режим частоты кадров : Постоянный
    Частота кадров : 24,000 кадра/сек
    Цветовое пространство : YUV
    Субдискретизация насыщенности : 4:2:0
    Битовая глубина : 8 бит
    Тип развёртки : Прогрессивная
    Бит/(Пиксели*Кадры) : 0.249
    Размер потока : 3,64 Гбайт (69%)
    Заголовок : (India)_EK_VILLAIN_2014_BDRIP_720P -BLUEBIRD
    Библиотека кодирования : x264 core 142 r2431 ac76440
    Настройки программы : cabac=1 / ref=7 / deblock=1:-3:-3 / analyse=0x3:0x113 / me=umh / subme=11 / psy=1 / psy_rd=1.00:0.00 / mixed_ref=1 / me_range=24 / chroma_me=1 / trellis=2 / 8x8dct=1 / cqm=0 / deadzone=21,11 / fast_pskip=1 / chroma_qp_offset=-2 / threads=2 / lookahead_threads=1 / sliced_threads=0 / nr=0 / decimate=1 / interlaced=0 / bluray_compat=0 / constrained_intra=0 / bframes=9 / b_pyramid=2 / b_adapt=2 / b_bias=0 / direct=1 / weightb=1 / open_gop=0 / weightp=2 / keyint=230 / keyint_min=23 / scenecut=40 / intra_refresh=0 / rc_lookahead=60 / rc=2pass / mbtree=0 / bitrate=4158 / ratetol=1.0 / qcomp=0.60 / qpmin=0 / qpmax=69 / qpstep=4 / cplxblur=20.0 / qblur=0.5 / vbv_maxrate=50000 / vbv_bufsize=45000 / nal_hrd=none / filler=0 / ip_ratio=1.40 / pb_ratio=1.30 / aq=1:1.00
    Язык : Hindi
    Default : Да
    Forced : Нет

    Аудио #1
    Идентификатор : 2
    Формат : DTS
    Формат/Информация : Digital Theater Systems
    Режим : 16
    Параметр Endianness формата : Big
    Идентификатор кодека : A_DTS
    Продолжительность : 2 ч. 8 м.
    Вид битрейта : Постоянный
    Битрейт : 1509 Кбит/сек
    Каналы : 6 каналов
    Расположение каналов : Front: L C R, Side: L R, LFE
    Частота : 48,0 КГц
    Битовая глубина : 24 бит
    Метод сжатия : С потерями
    Размер потока : 1,36 Гбайт (26%)
    Заголовок : DTS Core: 5.1 / 48 kHz / 1509 kbps / 24-bit
    Язык : Hindi
    Default : Да
    Forced : Нет

    Аудио #2
    Идентификатор : 3
    Формат : AC-3
    Формат/Информация : Audio Coding 3
    Расширение режима : CM (complete main)
    Параметр Endianness формата : Big
    Идентификатор кодека : A_AC3
    Продолжительность : 2 ч. 8 м.
    Вид битрейта : Постоянный
    Битрейт : 192 Кбит/сек
    Каналы : 2 канала
    Расположение каналов : Front: L R
    Частота : 48,0 КГц
    Метод сжатия : С потерями
    Размер потока : 177 Мбайт (3%)
    Заголовок : SDI Media
    Язык : Russian
    Default : Нет
    Forced : Нет

    Текст #1
    Идентификатор : 4
    Формат : UTF-8
    Идентификатор кодека : S_TEXT/UTF8
    Идентификатор кодека/Информация : UTF-8 Plain Text
    Заголовок : Rummata - songs
    Язык : Russian
    Default : Да
    Forced : Да

    Текст #2
    Идентификатор : 5
    Формат : UTF-8
    Идентификатор кодека : S_TEXT/UTF8
    Идентификатор кодека/Информация : UTF-8 Plain Text
    Заголовок : Rummata - full
    Язык : Russian
    Default : Нет
    Forced : Нет

    Текст #3
    Идентификатор : 6
    Формат : UTF-8
    Идентификатор кодека : S_TEXT/UTF8
    Идентификатор кодека/Информация : UTF-8 Plain Text
    Заголовок : Eng - full
    Язык : English
    Default : Нет
    Forced : Нет

    Меню
    00:00:00.000 : en:00:00:00.000
    00:05:11.375 : en:00:05:11.375
    00:08:22.250 : en:00:08:22.250
    00:12:08.500 : en:00:12:08.500
    00:20:23.417 : en:00:20:23.417
    00:22:41.458 : en:00:22:41.458
    00:29:17.417 : en:00:29:17.417
    00:30:14.833 : en:00:30:14.833
    00:32:44.417 : en:00:32:44.417
    00:37:23.750 : en:00:37:23.750
    00:43:33.083 : en:00:43:33.083
    00:53:59.708 : en:00:53:59.708
    01:02:31.625 : en:01:02:31.625
    01:07:07.083 : en:01:07:07.083
    01:16:15.417 : en:01:16:15.417
    01:20:24.542 : en:01:20:24.542
    01:25:49.000 : en:01:25:49.000
    01:31:43.417 : en:01:31:43.417
    01:36:48.000 : en:01:36:48.000
    01:42:23.000 : en:01:42:23.000
    01:45:54.417 : en:01:45:54.417
    01:55:01.000 : en:01:55:01.000
    02:04:50.333 : en:02:04:50.333
7.0 из 10
голосов: 3
/10
/10
grab777 14-12-2015, 14:58

viktorkumar2 | 14-12-2015, 21:01 | Статус: Оффлайн

Прекраснейшая картина. Надо смотреть и наслаждаться и Дешмукх молодец!

refael12 | 4-09-2014, 00:31 | Статус:

super :)))))))))))))))))))))))))))))))))))
Информация
Посетители, находящиеся в группе Гости, не могут оставлять комментарии к данной публикации.