Панель пользователя
Регистрация

Воспользуйтесь социальными сетями для входа на https://freerutor.com

vk odnoklassniki facebook mailru yandex google
Популярное
Счетчик
Голосуй за нас
VIP на сайте
Популярное
Товары интернет магазина
загрузка...

Перетасовка (2011) BDRip 720p

Перетасовка (2011) BDRip 720p
Участники торрент обмена
Сидов Пиров Скачали
3 0 83
Характеристика
Размер Файлы
3.39 GB
Поделиться раздачей
Фильмы (720,1080,Blu-Ray)
Наименование: Перетасовка
Оригинальное наименование: Shuffle
Категория: Драма
Год выпуска: 2011
Произведено: США
Режиссер постановщик: Курт Кенни
В главных ролях: Ти-Джей Тайн, Паула Родс, Крис Стоун, Меган Холавэй, Дилан Спрейберри, Эль Лабади, Мишель Крусик, Патриция Белчер, Тамара Тейлор, Коуди Эберкромби
Краткое описание: Это история человека, который вдруг начинает жить не по порядку, каждый день он просыпается другого возраста, в другой день его жизни, не зная, где и когда он окажется после очередного сна. Он испуган до смерти и хочет как-то это остановить. Вскоре он замечает некоторую зависимость и порядок в происходящем и пытается остановить кошмар, узнать кто в этом виновен…
  • Видео данные: MPEG-4 AVC, 5500 Кбит/с, 1280x720
    Аудио данные: Русский, английский (AC3, 2 ch, 192 Кбит/с)
    Перевод: Профессиональный многоголосый
    Субтитры: Английские
    Продолжительность: 01:22:20
  • Перетасовка (2011) BDRip 720p Перетасовка (2011) BDRip 720p Перетасовка (2011) BDRip 720p
  • Общее
    Формат : Matroska
    Версия формата : Version 2
    Размер файла : 3,39 Гбайт
    Продолжительность : 1 ч. 22 м.
    Общий поток : 5889 Кбит/сек
    Название фильма : Shuffle.2011.BDRip by Lexandros
    Дата кодирования : UTC 2016-06-05 04:59:52
    Программа кодирования : mkvmerge v8.5.2 ('Crosses') 32bit
    Библиотека кодирования : libebml v1.3.3 + libmatroska v1.4.4

    Видео
    Идентификатор : 1
    Формат : AVC
    Формат/Информация : Advanced Video Codec
    Профиль формата : High@L4.1
    Параметр CABAC формата : Да
    Параметр ReFrames формата : 9 кадров
    Идентификатор кодека : V_MPEG4/ISO/AVC
    Продолжительность : 1 ч. 22 м.
    Битрейт : 5500 Кбит/сек
    Ширина : 1280 пикселей
    Высота : 720 пикселей
    Соотношение сторон : 16:9
    Режим частоты кадров : Постоянный
    Частота кадров : 23,976 (24000/1001) кадра/сек
    Цветовое пространство : YUV
    Субдискретизация насыщенности : 4:2:0
    Битовая глубина : 8 бит
    Тип развёртки : Прогрессивная
    Бит/(Пиксели*Кадры) : 0.249
    Размер потока : 3,16 Гбайт (93%)
    Библиотека кодирования : x264 core 148 r2638 7599210
    Настройки программы : cabac=1 / ref=9 / deblock=1:-1:-1 / analyse=0x3:0x133 / me=umh / subme=11 / psy=1 / psy_rd=1.05:0.00 / mixed_ref=1 / me_range=32 / chroma_me=1 / trellis=2 / 8x8dct=1 / cqm=0 / deadzone=21,11 / fast_pskip=0 / chroma_qp_offset=-2 / threads=12 / lookahead_threads=3 / sliced_threads=0 / nr=0 / decimate=0 / interlaced=0 / bluray_compat=0 / constrained_intra=0 / bframes=16 / b_pyramid=2 / b_adapt=2 / b_bias=0 / direct=3 / weightb=1 / open_gop=0 / weightp=2 / keyint=240 / keyint_min=23 / scenecut=40 / intra_refresh=0 / rc_lookahead=60 / rc=2pass / mbtree=0 / bitrate=5500 / ratetol=1.0 / qcomp=0.70 / qpmin=10 / qpmax=51 / qpstep=4 / cplxblur=20.0 / qblur=0.5 / vbv_maxrate=62500 / vbv_bufsize=78125 / nal_hrd=none / filler=0 / ip_ratio=1.40 / pb_ratio=1.20 / aq=3:0.85
    Default : Да
    Forced : Нет

    Аудио #1
    Идентификатор : 2
    Формат : AC-3
    Формат/Информация : Audio Coding 3
    Расширение режима : CM (complete main)
    Параметр Endianness формата : Big
    Идентификатор кодека : A_AC3
    Продолжительность : 1 ч. 22 м.
    Вид битрейта : Постоянный
    Битрейт : 192 Кбит/сек
    Каналы : 2 канала
    Расположение каналов : Front: L R
    Частота : 48,0 КГц
    Частота кадров : 31,250 кадров/сек (1536 spf)
    Метод сжатия : С потерями
    Размер потока : 113 Мбайт (3%)
    Заголовок : Русский (Студия "Яскьер")
    Язык : Russian
    Default : Да
    Forced : Нет

    Аудио #2
    Идентификатор : 3
    Формат : AC-3
    Формат/Информация : Audio Coding 3
    Расширение режима : CM (complete main)
    Параметр Endianness формата : Big
    Идентификатор кодека : A_AC3
    Продолжительность : 1 ч. 22 м.
    Вид битрейта : Постоянный
    Битрейт : 192 Кбит/сек
    Каналы : 2 канала
    Расположение каналов : Front: L R
    Частота : 48,0 КГц
    Частота кадров : 31,250 кадров/сек (1536 spf)
    Метод сжатия : С потерями
    Размер потока : 113 Мбайт (3%)
    Заголовок : English Original
    Язык : English
    Default : Нет
    Forced : Нет

    Текст
    Идентификатор : 4
    Формат : PGS
    Режим смешивания : zlib
    Идентификатор кодека : S_HDMV/PGS
    Идентификатор кодека/Информация : Picture based subtitle format used on BDs/HD-DVDs
    Продолжительность : 1 ч. 21 м.
    Битрейт : 7555 бит/сек
    Count of elements : 2875
    Размер потока : 4,42 Мбайт (0%)
    Язык : English
    Default : Нет
    Forced : Нет
5.0 из 10
голосов: 1
/10
/10
grab777 6-06-2016, 02:17
Информация
Посетители, находящиеся в группе Гости, не могут оставлять комментарии к данной публикации.